www.QueBajamos.li > Zona Descargas > Películas y Series de Animación > DVDRip & HDRip Animación

Avisos


ANUNCIOS OFICIALES

NUEVA REESTRUCTURACIÓN DE "SERIES" MÁS FÁCIL E INTUITIVA PARA UPLOADERS / USUARIOS
Series Subforos: Series SD - Nuevas Temporadas, Series HD - Nuevas Temporadas, Series DVD Full, Series Full Blu Ray

ATENCIÓN UPLOADERS NUEVA SECCIÓN "Peticiones para Uploaders" (todas en un único hilo, VISITARLO FRECUENTEMENTE)
ULTIMOS APORTES 
El joven Detective Dee: el poder del dragon marino (2013) - 1080p 5.1 - ONLINEThe Walking Dead - T.5ª [2/4] 1080p[2GB] - 720p[1GB] - ONLINEEl Hobbit: La desolación de Smaug (2013) (V. Extendida) [HDRip][Castellano.AC3 5.1][Sub.Forzados][Fantástico.Aventuras]El Hobbit: La desolación de Smaug (2013) (V. Extendida) [DVDRip][Castellano.AC3 5.1][Sub.Forzados][Fantástico.Aventuras]El Hobbit: La desolación de Smaug (2013) (V. Extendida) [BDRip microHD 720p][Castellano AC3 5.1/ Ingles AC3 5.1][Subs Forzados][Sub.Forzados][Fantástico.Aventuras]El Hobbit: La desolación de Smaug Ver.Extendida (2013)[BDRIP/micro.1080p][Cast.Eng(Ac3 5.1)][Subt.Forz][Acción.Avent]El extraordinario viaje de T.S. Spivet [DVD9FULL][PAL][Esp.Es/Ing/Cat/Eus][Subs.Varios[Aventuras][2013]Al cruzar el límite (Extreme Measures) [1996][Intriga. Thriller. Medicina][m720p][WEB-DL x264][Dual][Eng.Esp][Ac3-2.0][Subs]Not That Funny [DVD5][PAL][Esp.Es/Ingles][Subs.Esp][Comedia][2012][Multihost]El extraordinario viaje de T.S. Spivet [BDrip 720][Ac3 (es-ES);DTS (en-US)][Aventuras][2013]Step Up All In (2014) - 1080p BR-Scr - ONLINEEl Extraordinario Viaje De T.S. Spivet (2013) 3D A/A - 1080p 5.1 - ONLINEEl extraordinario viaje de T.S. Spivet (2013) - 1080p 5.1 - ONLINEEl Joven Detective Dee El Poder Del Dragón Marino 3D A/A | 2014 | Accion | BDRip 1080p | cast.ac3 eng.dts | Subtil. | 11.3 GBEl joven Detective Dee: el poder del dragón marino (2013) [HDRip XviD][Castellano Ac3 5.1][Accion/Aventuras]El joven Detective Dee: el poder del dragón marino (2013) [DVDRip XviD][Castellano Ac3 5.1][Accion/Aventuras]El joven Detective Dee: el poder del dragón marino (2013)[BDRIP/micro.720p][Cast(Ac3 5.1)/Eng(Ac3 5.1)][Subt][Acción.Avent]El joven Detective Dee: el poder del dragón marino (2013)[BDRIP/micro.1080p][Cast(Ac3 5.1)/Eng(Ac3 5.1)][Subt][Acción.Avent]El joven Detective Dee: el poder del dragón marino (2013)[BDRIP/1080p][Cast(Ac3 5.1)/Eng(DTS 5.1)][Subt][Acción.Avent]Congo | 1995 | Michael Crichton | Aventuras-Ciencia Ficción-Fantástico | BDRemux (.m2ts) 1080p | cast.ac3 eng.dts-hd | Subs. | 24 Gb.Step Up All In (2014) [BR-SCREENER 1080] [MiC DubbeD HQ Castellano] [Drama - Musical]Step Up All In (2014) [BR-SCREENER 720] [MiC DubbeD HQ Castellano] [Drama - Musical]El extraordinario viaje de T.S. Spivet (2013) [DVDRip XviD][ Dual Castellano / Inglés Ac3 5.1][Aventuras - Comedia]Step Up All In (2014) [BR-SCREENER XviD] [MiC DubbeD HQ Castellano] [Drama - Musical]El Extraordinario Viaje De T.S. Spivet 3D A/A | 2013 | Aventuras | BDRip 1080p | cast.ac3 eng.dts | Subtil. 3D | 11.5 GBEl extraordinario viaje de T.S. Spivet (2013) [HDRip XviD][ Dual Castellano / Inglés Ac3 5.1][Aventuras - Comedia]Not That Funny [DVD9FULL][PAL][Esp.Es/Ingles][Subs.Esp][Comedia][2012][Multihost]El extraordinario viaje de T.S. Spivet (2013) [HDRip XviD][Castellano Ac3 5.1][Aventuras - Comedia]El extraordinario viaje de T.S. Spivet (2013)[BDRIP/micro.720p][Cast(Ac3 5.1)/Eng(Ac3 5.1)][Subt][Avent.Comedia]El extraordinario viaje de T.S. Spivet (2013) [DVDRip XviD][Castellano Ac3 5.1][Aventuras - Comedia]El extraordinario viaje de T.S. Spivet (2013)[BDRIP/micro.1080p][Cast(Ac3 5.1)/Eng(Ac3 5.1)][Subt][Avent.Comedia]El extraordinario viaje de T.S. Spivet (2013)[BDRIP/1080p][Cast(Ac3 5.1)/Eng(DTS 5.1)][Subt][Avent.Comedia]Not That Funny (2012) [DVDRip XviD][Castellano AC3 5.1][Comedia romántica]Los Pilares de la Tierra (DVD9 x 4)(PAL)(castellano/ingles)(sub: Cas-Ing)(2010)(Aventuras,Edad Media)Perdida (Gone Girl) [2014][CAM-Rip XviD][castellano MIC Dubbed HQ][Thriller]Distrito 9 (District 9)(2009)[BRRIP m720p][Dual AC3 5.1 esp/eng][Ciencia ficción. Thriller]Espartaco 50º Aniversario | 1960 | Aventuras | FullBluRay.1080p.AVC.m2ts | Eng.DTS-HD/Esp.DTS/Varios.DTS | 45.40 GBLa jungla humana | 1968 | Thriller. Acción  | BD.Remux (avc) | cast.ac3.eng.dts-ma. | subt. | 17,3 GBEl diablo sobre ruedas [1971][BDrip.m-1080p.x264][Esp.DTS-Eng.AC3][Intriga Thriller]Torpedo | 1958 | Bélico Submarinos | BD.Remux (avc) | cast.ac3.eng.dts-ma | subt | (BN) | 17,4 GBThe Walking Dead - Temporada 5 [HDTV 720P][2 GB][VOSE-INCRUSTADO][Multi][2/16]Lo Imposible [2012][MicroHD][720p][AC3Castellano][Catastrófica]Big Buck Bunny 3D Arriba/Abajo | 2009 | Corto De Animacion | BDRip 1080p | cast.dtshd cast.ac3 | 1.8 GBAbril Sangriento [2008][720p][AC3Castellano][TERROR//REMAKE]Inocentada Sangrienta [1986][720p][AC3Castellano][TERROR]Los Cinco y El Misterio De La Joya Escondida | 2013 | Aventuras | BDRip 1080p | cast.ac3 ger.dts | Subtil. | 6.7 GBRevolver  | 2005 | Guy Ritchie | Mafia-Thriller-Filosófico | BDRip (.mkv) 1080p | cast.ac3 eng.true.hd | Subs. | 11 Gb.Revolver  | 2005 | Guy Ritchie | Mafia-Thriller-Filosófico | BDRemux (.m2ts) 1080p | cast.ac3 eng.true.hd | Subs. | 25 Gb.La ceremonia (La cérémonie) [1995][Drama. Thriller][m1080p][BDRip x264][Dual][Fre.Esp][Ac3-2.0][Subs]The Equalizer (El protector) [2014][HDCAM-Rip XviD][castellano MIC Dubbed HQ][Acción, Thriller]

Respuesta
 
Herramientas Buscar en Tema Desplegado
Antiguo 20/11/2013, 06:28   #1
Next


 
Mensajes: 551
Fecha de ingreso: 26/oct/2012
Puntos: 14.015, Nivel: 81
Puntos: 14.015, Nivel: 81 Puntos: 14.015, Nivel: 81 Puntos: 14.015, Nivel: 81
Actividad: 0%
Actividad: 0% Actividad: 0% Actividad: 0%
Gracias: 257
Agradecido 9.120 Veces en 503 Posts

Predeterminado Turbo [2013][HDrip][Castellano AC-3 5.1][Animación]






TÍTULO ORIGINAL: Turbo

AÑO: 2013

DURACIÓN: 98 min.

PAÍS: Estados Unidos

DIRECTOR: David Soren

GUIÓN: Darren Lemke, David Soren, Robert D. Siegel

MÚSICA: Henry Jackman

FOTOGRAFÍA: Animation

REPARTO: Animation

PRODUCTORA: Dreamworks Animation

GÉNERO: Animación. Comedia. Infantil | Coches / Automovilismo



SINOPSIS:

Turbo es un caracol de jardín con un sueño imposible: convertirse en el caracol más rápido del mundo. Cuando un extraño accidente le da el poder de la súper-velocidad, Turbo intentará cumplir su sueño. Primero se hará amigo de una peculiar pandilla de caracoles callejeros tuneados y obsesionados con la velocidad, y allí Turbo aprenderá que nadie llega a tener éxito por sí solo. Así que coloca su corazón y su concha en la línea de salida dispuesto a ayudar a sus colegas a lograr sus sueños, antes de intentar alcanzar su sueño imposible: ganar las 500 millas de Indianápolis.


MEDIA INFO:

Format : AVI
Format/Info : Audio Video Interleave
File size : 1.33 GiB
Duration : 1h 35mn
Overall bit rate : 1 987 Kbps
Writing application : VirtualDubMod 1.5.10.2 (build 2540/release)
Writing library : VirtualDubMod build 2540/release

Video
ID : 0
Format : MPEG-4 Visual
Format profile : Advanced Simple@L5
Format settings, BVOP : 2
Format settings, QPel : No
Format settings, GMC : No warppoints
Format settings, Matrix : Default (H.263)
Muxing mode : Packed bitstream
Codec ID : XVID
Codec ID/Hint : XviD
Duration : 1h 35mn
Bit rate : 1 593 Kbps
Width : 720 pixels
Height : 304 pixels
Display aspect ratio : 2.35:1
Frame rate : 23.976 fps
Color space : YUV
Chroma subsampling : 4:2:0
Bit depth : 8 bits
Scan type : Progressive
Compression mode : Lossy
Bits/(Pixel*Frame) : 0.304
Stream size : 1.06 GiB (80%)
Writing library : XviD 1.2.1 (UTC 2008-12-04)

Audio
ID : 1
Format : AC-3
Format/Info : Audio Coding 3
Mode extension : CM (complete main)
Format settings, Endianness : Big
Codec ID : 2000
Duration : 1h 35mn
Bit rate mode : Constant
Bit rate : 384 Kbps
Channel count : 6 channels
Channel positions : Front: L C R, Side: L R, LFE
Sampling rate : 48.0 KHz
Bit depth : 16 bits
Compression mode : Lossy
Stream size : 263 MiB (19%)
Alignment : Split accross interleaves
Interleave, duration : 42 ms (1.00 video frame)
Interleave, preload duration : 500 ms
 



CAPTURAS DE IMAGENES:

[IMG]http://img708.**********.us/img708/6484/30b0.jpg[/IMG]



Mis Agradecimientos a CHimbero

[IMG]http://img826.**********.us/img826/4013/9au3.png[/IMG]

[IMG]http://img11.**********.us/img11/7185/sczh.png[/IMG]
100% PUTLOCKER



contains hidden content
Usted tendrá que pulsar 'gracias' para ver el contenido ocultado

 




[IMG]http://img14.**********.us/img14/8246/c6bv.gif[/IMG]






[IMG]http://img818.**********.us/img818/4574/conjuntorecomienda.png[/IMG]


3D SBS 1080p [Para Appletv]
ALTA CALIDAD ONO o 30mb VDSL



BDRip 1080p [Para PC-AppleTV]



HDRip [Para iPad]





__________________
Si quieres ayudarme y comprar una premium en uploaded hazlo a través de este enlace


To view links or images in signatures your post count must be 10 or greater. You currently have 0 posts.


To view links or images in signatures your post count must be 10 or greater. You currently have 0 posts.


Última edición por vilavila1967; 26/04/2014 a las 23:43
Next está desconectado   Responder Citando
Los siguientes 138 foreros le dan las gracias a Next por este post:
58158924 (21/11/2013), aipo (24/11/2013), akuto (21/11/2013), Alfe21 (08/08/2014), Alguarro (21/11/2013), almeria (06/12/2013), alzaperra (19/09/2014), amarosa (09/09/2014), AntonioLimonchelo (20/11/2013), Antonio_ar (22/11/2013), Arion77 (21/11/2013), bayronkahn (29/08/2014), BLADE RUNNER (21/11/2013), buti68 (20/11/2013), cado (20/11/2013), calaito (25/11/2013), carlos6184 (07/08/2014), Chago1 (23/12/2013), chapulo (21/11/2013), charli (07/10/2014), chechi74 (29/07/2014), chuchicoupet (10/09/2014), comino-pelayo (27/11/2013), corisco (20/11/2013), corolario (02/03/2014), Darkseed (20/06/2014), DATA007 (08/08/2014), djneura (07/08/2014), electromode (20/11/2013), elichoap (24/11/2013), ELNEK (01/08/2014), fegx (30/11/2013), Fraile (23/11/2013), fumanchu (13/12/2013), Gadesman (25/11/2013), Gijones (20/11/2013), ginjol78 (22/11/2013), goldoni22 (25/11/2013), grande78 (05/12/2013), Grolo (22/03/2014), helorju (23/11/2013), hero32 (24/11/2013), hysia (23/11/2013), ineluki (22/11/2013), issabbell (05/12/2013), jahs (18/07/2014), javisosa1 (23/11/2013), Javi_wan (22/06/2014), jcanta1 (18/09/2014), jcsv (20/01/2014), JMMARAUZ2 (05/08/2014), JOANLL (22/11/2013), jonidani (06/12/2013), joselara (01/12/2013), juandas (21/11/2013), juanmavf (19/03/2014), juanrm79 (02/03/2014), kabuby (23/11/2013), Kenshy (23/12/2013), Kikearro (18/01/2014), kikrs (18/10/2014), Leonardo (08/07/2014), lgcouso (01/12/2013), locared (19/06/2014), locopeyo (02/02/2014), lolermoler (05/12/2013), lorenzo1020 (20/11/2013), Luis Gracia Pinill (05/12/2013), luna05 (22/11/2013), M4RK (01/01/2014), mafu14 (20/11/2013), MaikelSL (20/11/2013), malale (22/11/2013), manele74 (04/08/2014), manolobolo (03/12/2013), mariajose1989 (21/06/2014), mariu (24/11/2013), maximocar (20/11/2013), maxino42 (08/08/2014), mcgregor0069 (24/11/2013), miguel20dh (28/07/2014), miguelino (22/11/2013), mourypiti (24/12/2013), mrurodri (21/11/2013), nanef (30/12/2013), nemesisl74 (28/11/2013), novatillo11 (23/11/2013), oknow (24/11/2013), pacogil (20/11/2013), pakitojimenez (20/11/2013), pdiazleon (13/01/2014), pechogato (19/06/2014), pelakes (20/11/2013), penitenchiatile (20/11/2013), pericoraul (20/11/2013), pilares (22/11/2013), pitu205 (11/05/2014), poison_vox (21/11/2013), pou2 (02/01/2014), ptalavan (25/11/2013), pzarco (21/11/2013), quillo (22/11/2013), ramason (05/12/2013), rguerrero47 (23/11/2013), rinozor (20/11/2013), rj122 (20/11/2013), rluy (16/07/2014), rosavecina (24/11/2013), rubenkamu (20/11/2013), rugoca0308 (24/12/2013), rutc (20/11/2013), sanco (05/12/2013), sandros (01/12/2013), saramacgo (20/11/2013), siriakov (20/11/2013), sluke (21/11/2013), sralto (10/01/2014), supergranmessi (12/02/2014), Telper (21/11/2013), tomgiganto (20/11/2013), tonimaleroy (26/11/2013), ToRReNTe88 (24/11/2013), treminator (20/11/2013), triunfo (23/11/2013), tx403 (20/11/2013), Unodelprao (28/11/2013), un_ballantines (13/01/2014), urullo (25/12/2013), vcf21 (21/11/2013), vicenbike (27/11/2013), vilano (26/11/2013), vilavila1967 (20/11/2013), willieweb (23/11/2013), xque2007 (21/11/2013), yuyu (20/11/2013), zangolo (25/11/2013), zetanito (13/12/2013), zipizape (20/11/2013)
Antiguo 20/11/2013, 06:32   #2
Banned

zafiro219

 
Mensajes: 269
Fecha de ingreso: 10/sep/2013
Gracias: 0
Agradecido 2.403 Veces en 281 Posts

Predeterminado Respuesta: Turbo [2013][HDrip][Castellano AC-3 5.1][Animación]

[IMG]http://img19.**********.us/img19/6097/ayl3.jpg[/IMG]




Comedia en 3D de alta velocidad que gira en torno a un desvalido caracol cuyos sueños se ponen en superdirecta cuando –de forma milagrosa– consigue el poder de la hipervelocidad. Pero después de entablar amistad con un equipo de espabilados y acicalados caracoles, Turbo aprende que nadie alcanza el éxito con sus solas fuerzas. Así que pone todo su corazón (y su concha) en la empresa para ayudar a sus amigos a hacer realidad sus sueños, antes de meterle el turbocompresor a su propia ilusión imposible: ganar las 500 Millas de Indianápolis.


Título: Turbo
Título original: Turbo
País: USA
Estreno en USA: 17/07/2013
Estreno en España: 18/10/2013
Productora: 20th Century Fox, DreamWorks Animation
Director: David Soren
Guión: Darren Lemke, Robert Siegel, David Soren
Reparto: (Voces de) Ryan Reynolds, Paul Giamatti, Michael Pena, Luis Guzmán, Bill Hader, Richard Jenkins, Ken Jeong, Michelle Rodriguez, Maya Rudolph, Ben Schwartz, Snoop Dogg, a.k.a. Snoop Lion, Samuel L. Jackson
Calificación: Apta para todos los públicos

Calidad de Video: HDRip XviD
Calidad de Audio: Ac3 5.1 (Castellano)
Tamaño: 1.33 gb


[IMG]http://fotos.*********.com/32e3cfc8df6353ad1144f8400a55b963o.jpg[/IMG]
[IMG]http://fotos.*********.com/7545f9daabc749ec417acd73c0ba8ba7o.jpg[/IMG]
[IMG]http://fotos.*********.com/9dfc9b11e102c46aeb6e89d4e4eb7002o.jpg[/IMG]
[IMG]http://fotos.*********.com/ff77e807368356997c8fc885f323f8aco.jpg[/IMG]

[IMG]http://s4.*********.org/wkvtkfcl4/Descargas.png[/IMG]

ENLACES INTERCAMBIABLES




Bájate Todo desde Putlocker y sólo una parte de 100 Mb de Uploaded.Enlaces intercambiables tambien disponibles por Uploaded.

contains hidden content
Usted tendrá que pulsar 'gracias' para ver el contenido ocultado








Última edición por zafiro219; 20/11/2013 a las 06:49
zafiro219 está desconectado   Responder Citando
Los siguientes 43 foreros le dan las gracias a zafiro219 por este post:
Apofis ***2-12-2018*** (20/11/2013), Belijay (20/11/2013), cado (20/11/2013), charli (07/10/2014), chechi74 (29/07/2014), Darkseed (20/06/2014), DATA007 (08/08/2014), ELNEK (01/08/2014), ferdasilva (19/12/2013), Gijones (20/11/2013), goldoni22 (03/12/2013), grande78 (05/12/2013), Javi_wan (22/06/2014), jhonegerald (20/11/2013), JMMARAUZ2 (05/08/2014), josep lluis (20/11/2013), jsegundo3579 (20/11/2013), Kenshy (23/12/2013), lolota (21/11/2013), luiseg (20/11/2013), manele74 (04/08/2014), mariu (24/11/2013), marymollerussa (24/06/2014), maximocar (20/11/2013), maxino42 (08/08/2014), miguel20dh (28/07/2014), novatillo11 (23/11/2013), perrosoy (20/11/2013), rinconete (23/09/2014), rinozor (20/11/2013), rj122 (20/11/2013), rosavecina (24/11/2013), rutc (20/11/2013), sghiebra (06/12/2013), teix (20/11/2013), tiopako (20/11/2013), tomgiganto (20/11/2013), triunfo (23/11/2013), vcf21 (21/11/2013), vilano (26/11/2013), Xose70 (26/11/2013), yuyu (20/11/2013), zangolo (25/11/2013)
Antiguo 20/11/2013, 06:57   #3
LUCKY


 
Avatar de LUCKY
 
Mensajes: 440
Fecha de ingreso: 22/jul/2012
Puntos: 4.080, Nivel: 42
Puntos: 4.080, Nivel: 42 Puntos: 4.080, Nivel: 42 Puntos: 4.080, Nivel: 42
Actividad: 54%
Actividad: 54% Actividad: 54% Actividad: 54%
Gracias: 55
Agradecido 3.809 Veces en 400 Posts

Car Respuesta: Turbo [2013][HDrip][Castellano AC-3 5.1][Animación]







Título: Turbo
Título original: Turbo
País: USA
Estreno en USA: 17/07/2013
Estreno en España: 18/10/2013
Productora: 20th Century Fox, DreamWorks Animation
Director: David Soren
Guión: Darren Lemke, Robert Siegel, David Soren
Reparto: (Voces de) Ryan Reynolds, Paul Giamatti, Michael Pena, Luis Guzmán, Bill Hader, Richard Jenkins, Ken Jeong, Michelle Rodriguez, Maya Rudolph, Ben Schwartz, Snoop Dogg, a.k.a. Snoop Lion, Samuel L. Jackson
Calificación: Apta para todos los públicos


Comedia en 3D de alta velocidad que gira en torno a un desvalido caracol cuyos sueños se ponen en superdirecta cuando –de forma milagrosa– consigue el poder de la hipervelocidad. Pero después de entablar amistad con un equipo de espabilados y acicalados caracoles, Turbo aprende que nadie alcanza el éxito con sus solas fuerzas. Así que pone todo su corazón (y su concha) en la empresa para ayudar a sus amigos a hacer realidad sus sueños, antes de meterle el turbocompresor a su propia ilusión imposible: ganar las 500 Millas de Indianápolis.

Calidad de Video: HDRip XviD
Calidad de Audio: Ac3 5.1 (Castellano) e Ingles 5.1
Subtitulos: Si en Español e Ingles dentro del Rar
Tamaño: 1.59 gb


[IMG]http://fotos.*********.com/32e3cfc8df6353ad1144f8400a55b963o.jpg[/IMG]
[IMG]http://fotos.*********.com/7545f9daabc749ec417acd73c0ba8ba7o.jpg[/IMG]
[IMG]http://fotos.*********.com/9dfc9b11e102c46aeb6e89d4e4eb7002o.jpg[/IMG]



Mediainfo:

********

Complete name : files/TurboHDripd.LUCKY.avi
Format : AVI
Format/Info : Audio Video Interleave
File size : 1.59 GiB
Duration : 1h 35mn
Overall bit rate : 2 375 Kbps
Writing application : VirtualDubMod 1.5.10.2 (build 2540/release)
Writing library : VirtualDubMod build 2540/release

Video
ID : 0
Format : MPEG-4 Visual
Format profile : Advanced Simple@L5
Format settings, BVOP : 2
Format settings, QPel : No
Format settings, GMC : No warppoints
Format settings, Matrix : Default (H.263)
Muxing mode : Packed bitstream
Codec ID : XVID
Codec ID/Hint : XviD
Duration : 1h 35mn
Bit rate : 1 593 Kbps
Width : 720 pixels
Height : 304 pixels
Display aspect ratio : 2.35:1
Frame rate : 23.976 fps
Color space : YUV
Chroma subsampling : 4:2:0
Bit depth : 8 bits
Scan type : Progressive
Compression mode : Lossy
Bits/(Pixel*Frame) : 0.304
Stream size : 1.06 GiB (67%)
Writing library : XviD 1.2.1 (UTC 2008-12-04)

Audio #1
ID : 1
Format : AC-3
Format/Info : Audio Coding 3
Mode extension : CM (complete main)
Codec ID : 2000
Duration : 1h 35mn
Bit rate mode : Constant
Bit rate : 384 Kbps
Channel(s) : 6 channels
Channel positions : Front: L C R, Side: L R, LFE
Sampling rate : 48.0 KHz
Bit depth : 16 bits
Compression mode : Lossy
Stream size : 263 MiB (16%)
Alignment : Split accross interleaves
Interleave, duration : 42 ms (1.00 video frame)
Interleave, preload duration : 500 ms

*********
 






PutLocker


contains hidden content
Usted tendrá que pulsar 'gracias' para ver el contenido ocultado


 


100%
ENLACES
PutLocker
NO MIXTO




contains hidden content
Usted tendrá que pulsar 'gracias' para ver el contenido ocultado


 








Última edición por vilavila1967; 26/04/2014 a las 23:43
LUCKY está desconectado   Responder Citando
Los siguientes 36 foreros le dan las gracias a LUCKY por este post:
akuto (21/11/2013), amarosa (09/09/2014), chechi74 (29/07/2014), crs40 (23/11/2013), Darkseed (20/06/2014), DATA007 (08/08/2014), ELNEK (01/08/2014), fresacida (20/11/2013), fumanchu (13/12/2013), Gijones (20/11/2013), grande78 (05/12/2013), Inmuki (01/12/2013), javisosa1 (06/12/2013), jctm (20/11/2013), JMMARAUZ2 (05/08/2014), JOANLL (22/11/2013), jucalomo (20/11/2013), lacapifaro (26/11/2013), manele74 (04/08/2014), marymollerussa (24/06/2014), maximocar (20/11/2013), maxino42 (08/08/2014), meigacho (20/11/2013), miguel20dh (28/07/2014), mokitron (20/11/2013), mrurodri (21/11/2013), novatillo11 (23/11/2013), pdiazleon (19/01/2014), pilares (22/11/2013), rbicoin (23/11/2013), rj122 (20/11/2013), rosavecina (24/11/2013), tomgiganto (20/11/2013), Torero66 (21/11/2013), triunfo (23/11/2013), xque2007 (21/11/2013)
Antiguo 20/11/2013, 08:50   #4
yamil


 
Mensajes: 3.206
Fecha de ingreso: 27/oct/2011
Puntos: 13.473, Nivel: 80
Puntos: 13.473, Nivel: 80 Puntos: 13.473, Nivel: 80 Puntos: 13.473, Nivel: 80
Actividad: 99%
Actividad: 99% Actividad: 99% Actividad: 99%
Gracias: 223
Agradecido 84.247 Veces en 3.494 Posts

Predeterminado Respuesta: Turbo [2013][HDrip][Castellano AC-3 5.1][Animación]





Título: Turbo
Título original: Turbo
País: USA
Estreno en USA: 17/07/2013
Estreno en España: 18/10/2013
Productora: 20th Century Fox, DreamWorks Animation
Director: David Soren
Guión: Darren Lemke, Robert Siegel, David Soren
Reparto: (Voces de) Ryan Reynolds, Paul Giamatti, Michael Pena, Luis Guzmán, Bill Hader, Richard Jenkins, Ken Jeong, Michelle Rodriguez, Maya Rudolph, Ben Schwartz, Snoop Dogg, a.k.a. Snoop Lion, Samuel L. Jackson
Calificación: Apta para todos los públicos
Género: Animación. Comedia. Infantil | Coches / Automovilismo. Cine familiar. 3-D

Sinopsis:
Comedia en 3D de alta velocidad que gira en torno a un desvalido caracol cuyos sueños se ponen en superdirecta cuando –de forma milagrosa– consigue el poder de la hipervelocidad. Pero después de entablar amistad con un equipo de espabilados y acicalados caracoles, Turbo aprende que nadie alcanza el éxito con sus solas fuerzas. Así que pone todo su corazón (y su concha) en la empresa para ayudar a sus amigos a hacer realidad sus sueños, antes de meterle el turbocompresor a su propia ilusión imposible: ganar las 500 Millas de Indianápolis.

Calidad de Video: HDRip XviD 720x304
Calidad de Audio: AC3 5.1 (Castellano)
Tamaño: 1.33 GB













contains hidden content
Usted tendrá que pulsar 'gracias' para ver el contenido ocultado
 






__________________
Si necesitas premium de Uploaded o Letitbit, Te agradecería si lo haces desde mis links de descarga. Gracias

Última edición por vilavila1967; 26/04/2014 a las 23:42
yamil está desconectado   Responder Citando
Los siguientes 46 foreros le dan las gracias a yamil por este post:
Apofis ***2-12-2018*** (20/11/2013), casimirolg (20/11/2013), charli (07/10/2014), chechi74 (29/07/2014), Darkseed (20/06/2014), DATA007 (08/08/2014), ELNEK (01/08/2014), ercachu (22/11/2013), fr3 (20/11/2013), fumanchu (13/12/2013), garcialuisxx (20/11/2013), Gijones (20/11/2013), grande78 (05/12/2013), gs68 (20/11/2013), GuimeraAGT (20/11/2013), Inmuki (01/12/2013), javisosa1 (23/11/2013), ketemola (05/12/2013), larrylopez (20/11/2013), Maigus (20/11/2013), manati (20/11/2013), marymollerussa (24/06/2014), maximocar (20/11/2013), maxino42 (08/08/2014), meigacho (20/11/2013), miguel20dh (28/07/2014), moooort (08/03/2014), mrurodri (21/11/2013), novatillo11 (23/11/2013), pakitojimenez (20/11/2013), pasteleromurada (20/11/2013), pdiazleon (19/01/2014), pechogato (19/06/2014), punnkys (20/11/2013), rinconete (23/09/2014), rosavecina (24/11/2013), setbox (20/11/2013), soniaalcaniz (20/11/2013), termitor (20/11/2013), titanium_155 (21/11/2013), tomgiganto (20/11/2013), triunfo (23/11/2013), tx403 (20/11/2013), vcf21 (21/11/2013), vilano (26/11/2013), yuyu (20/11/2013)
Antiguo 20/11/2013, 09:09   #5
NoMIXTO


 
Avatar de NoMIXTO
 
Mensajes: 2.169
Fecha de ingreso: 18/jul/2012
Puntos: 6.359, Nivel: 55
Puntos: 6.359, Nivel: 55 Puntos: 6.359, Nivel: 55 Puntos: 6.359, Nivel: 55
Actividad: 81%
Actividad: 81% Actividad: 81% Actividad: 81%
Gracias: 568
Agradecido 33.173 Veces en 2.169 Posts

Predeterminado Respuesta: Turbo [2013][HDrip][Castellano AC-3 5.1][Animación]








Título: Turbo
Título original: Turbo
País: USA
Estreno en USA: 17/07/2013
Estreno en España: 18/10/2013
Productora: 20th Century Fox, DreamWorks Animation
Director: David Soren
Guión: Darren Lemke, Robert Siegel, David Soren
Reparto: (Voces de) Ryan Reynolds, Paul Giamatti, Michael Pena, Luis Guzmán, Bill Hader, Richard Jenkins, Ken Jeong, Michelle Rodriguez, Maya Rudolph, Ben Schwartz, Snoop Dogg, a.k.a. Snoop Lion, Samuel L. Jackson
Calificación: Apta para todos los públicos

Sinopsis

Comedia en 3D de alta velocidad que gira en torno a un desvalido caracol cuyos sueños se ponen en superdirecta cuando –de forma milagrosa– consigue el poder de la hipervelocidad. Pero después de entablar amistad con un equipo de espabilados y acicalados caracoles, Turbo aprende que nadie alcanza el éxito con sus solas fuerzas. Así que pone todo su corazón (y su concha) en la empresa para ayudar a sus amigos a hacer realidad sus sueños, antes de meterle el turbocompresor a su propia ilusión imposible: ganar las 500 Millas de Indianápolis.


Calidad de Video: HDRip XviD
Calidad de Audio: Ac3 5.1 (Castellano)
Tamaño: 1.33 gb
Comprimido y dividido con Winrar.
release: next


* Enlaces protegidos para que duren mas
* Partes de 200mb intercambiable entre todos los servidores SIN contraseña
* Añadido 5% de registro de recuperación a cada parte por si se corrompen al ser
descargado podáis recuperarlos sin necesidad de volver a bajar otra vez la parte dañada.




Código:
Uploaded - http://subedlc.com/short/Bs

Código:
Firedrive - http://subedlc.com/short/sA

Código:
Sockshare - http://subedlc.com/short/Ot

Código:
Zippyshare - http://subedlc.com/short/Ki
 


100% Enlaces NoMIXTO.





Última edición por NoMIXTO; 04/08/2014 a las 12:42
NoMIXTO está desconectado   Responder Citando
Los siguientes 56 foreros le dan las gracias a NoMIXTO por este post:
101DIVISION (20/11/2013), akuto (20/11/2013), amarosa (09/09/2014), Apofis ***2-12-2018*** (20/11/2013), BLADE RUNNER (21/11/2013), bolo55 (08/03/2014), charli (26/09/2014), chechi74 (29/07/2014), conuncanto (20/11/2013), Darkseed (20/06/2014), Elap (21/11/2013), elgui (20/11/2013), ELNEK (01/08/2014), escarlata40 (20/11/2013), fresacida (20/11/2013), fumanchu (13/12/2013), GARRAPATEO (20/11/2013), gatoal (20/11/2013), Gijones (20/11/2013), grande78 (05/12/2013), hawckfire (20/11/2013), hedtrip (05/12/2013), Inmuki (01/12/2013), itram83 (22/11/2013), johnnyartero (20/11/2013), jucalomo (20/11/2013), k3vin (04/12/2013), ketemola (05/12/2013), kur (21/11/2013), lacapifaro (26/11/2013), maximocar (20/11/2013), miguel20dh (28/07/2014), mokitron (20/11/2013), moooort (08/03/2014), mordis (05/01/2014), mrurodri (21/11/2013), mtorero (20/11/2013), negurigurutze (29/11/2013), Nobox (21/11/2013), novatillo11 (23/11/2013), pakitojimenez (20/11/2013), periclesI (26/11/2013), polanski2 (20/11/2013), premium_tav (26/11/2013), previnca (20/11/2013), rbicoin (23/11/2013), rj122 (20/11/2013), Ronnie_Jumbo (27/11/2013), rosavecina (24/11/2013), Ryukang (05/10/2014), seniega (21/11/2013), tomgiganto (20/11/2013), triunfo (23/11/2013), valverdeyrey (05/12/2013), vcf21 (21/11/2013), visto (02/03/2014)
Antiguo 20/11/2013, 19:08   #6
lorenzo1020


 
Mensajes: 16
Fecha de ingreso: 31/oct/2012
Puntos: 1.483, Nivel: 22
Puntos: 1.483, Nivel: 22 Puntos: 1.483, Nivel: 22 Puntos: 1.483, Nivel: 22
Actividad: 0%
Actividad: 0% Actividad: 0% Actividad: 0%
Gracias: 292
Agradecido 47 Veces en 33 Posts

Predeterminado Respuesta: Turbo [2013][HDrip][Castellano AC-3 5.1][Animación]

gracias next para mis niñas




lorenzo1020 está desconectado   Responder Citando
Los siguientes 2 foreros le dan las gracias a lorenzo1020 por este post:
charli (26/09/2014), Next (20/11/2013)
Antiguo 20/11/2013, 20:47   #7
Bernini411


 
Avatar de Bernini411
 
Mensajes: 5.492
Fecha de ingreso: 03/nov/2013
Puntos: 15.417, Nivel: 85
Puntos: 15.417, Nivel: 85 Puntos: 15.417, Nivel: 85 Puntos: 15.417, Nivel: 85
Actividad: 44%
Actividad: 44% Actividad: 44% Actividad: 44%
Gracias: 6
Agradecido 5.800 Veces en 2.069 Posts

Predeterminado Respuesta: Turbo [2013][HDrip][Castellano AC-3 5.1][Animación]



Título: Turbo
Título original: Turbo
País: USA
Estreno en USA: 17/07/2013
Estreno en España: 18/10/2013
Productora: 20th Century Fox, DreamWorks Animation
Director: David Soren
Guión: Darren Lemke, Robert Siegel, David Soren
Reparto: (Voces de) Ryan Reynolds, Paul Giamatti, Michael Pena, Luis Guzmán, Bill Hader, Richard Jenkins, Ken Jeong, Michelle Rodriguez, Maya Rudolph, Ben Schwartz, Snoop Dogg, a.k.a. Snoop Lion, Samuel L. Jackson
Calificación: Apta para todos los públicos
Género: Animación. Comedia. Infantil | Coches / Automovilismo. 3-D. Cine familiar

Sinopsis: Comedia en 3D de alta velocidad que gira en torno a un desvalido caracol cuyos sueños se ponen en superdirecta cuando –de forma milagrosa– consigue el poder de la hipervelocidad. Pero después de entablar amistad con un equipo de espabilados y acicalados caracoles, Turbo aprende que nadie alcanza el éxito con sus solas fuerzas. Así que pone todo su corazón (y su concha) en la empresa para ayudar a sus amigos a hacer realidad sus sueños, antes de meterle el turbocompresor a su propia ilusión imposible: ganar las 500 Millas de Indianápolis.



CALIDAD DE VIDEO: HDRip XviD 720x304
CALIDAD DE AUDIO: AC3 5.1 (Castellano)
TAMAÑO: 1.33 GB

contains hidden content
Usted tendrá que pulsar 'gracias' para ver el contenido ocultado
 





Bernini411 está desconectado   Responder Citando
Los siguientes 13 foreros le dan las gracias a Bernini411 por este post:
amarosa (09/09/2014), charli (07/10/2014), Darkseed (20/06/2014), DATA007 (08/08/2014), ELNEK (01/08/2014), fumanchu (13/12/2013), gandalf-gris (19/08/2014), grande78 (05/12/2013), Inmuki (01/12/2013), novatillo11 (23/11/2013), pechogato (19/06/2014), rosavecina (24/11/2013), xque2007 (21/11/2013)
Antiguo 20/11/2013, 21:18   #8
Barbie


 
Avatar de Barbie
 
Mensajes: 1.348
Fecha de ingreso: 18/nov/2012
Puntos: 3.333, Nivel: 37
Puntos: 3.333, Nivel: 37 Puntos: 3.333, Nivel: 37 Puntos: 3.333, Nivel: 37
Actividad: 47%
Actividad: 47% Actividad: 47% Actividad: 47%
Gracias: 147
Agradecido 10.313 Veces en 1.235 Posts

Predeterminado Respuesta: Turbo [2013][HDrip][Castellano AC-3 5.1][Animación]



Turbo (2013)


TÍTULO ORIGINAL: Turbo
AÑO: 2013
DURACION : 98 min.
PAIS: Estados Unidos
DIRECTOR: David Soren
REPARTO: Animation
GENERO: Animación. Comedia. Infantil | Coches / Automovilismo


SINOPSIS: Turbo es un caracol de jardín con un sueño imposible: convertirse en el caracol más rápido del mundo. Cuando un extraño accidente le da el poder de la súper-velocidad, Turbo intentará cumplir su sueño. Primero se hará amigo de una peculiar pandilla de caracoles callejeros tuneados y obsesionados con la velocidad, y allí Turbo aprenderá que nadie llega a tener éxito por sí solo. Así que coloca su corazón y su concha en la línea de salida dispuesto a ayudar a sus colegas a lograr sus sueños, antes de intentar alcanzar su sueño imposible: ganar las 500 millas de Indianápolis.

FICHA TECNICA:

CALIDAD DE VIDEO: HDRip XviD 720x304
CALIDAD DE AUDIO: AC3 5.1 (Castellano)
TAMAÑO: 1.33 GB












1 LINK


contains hidden content
Usted tendrá que pulsar 'gracias' para ver el contenido ocultado


INTERCAMBIABLES


contains hidden content
Usted tendrá que pulsar 'gracias' para ver el contenido ocultado
 





Última edición por vilavila1967; 26/04/2014 a las 23:42 Razón: Etiquetar con SPOILER
Barbie está desconectado   Responder Citando
Los siguientes 20 foreros le dan las gracias a Barbie por este post:
amarosa (09/09/2014), charli (07/10/2014), Conan7074 (19/08/2014), Darkseed (20/06/2014), DATA007 (08/08/2014), ELNEK (01/08/2014), fr3 (26/11/2013), fumanchu (13/12/2013), gandalf-gris (19/08/2014), grande78 (05/12/2013), jucalomo (20/11/2013), kabuby (20/11/2013), mokitron (21/11/2013), novatillo11 (23/11/2013), pechogato (19/06/2014), ramestev (22/11/2013), rosavecina (24/11/2013), tapulta (24/11/2013), triunfo (23/11/2013), vcf21 (21/11/2013)
Antiguo 22/11/2013, 03:27   #9
vaguit0


 
Mensajes: 335
Fecha de ingreso: 26/jul/2013
Puntos: 1.589, Nivel: 23
Puntos: 1.589, Nivel: 23 Puntos: 1.589, Nivel: 23 Puntos: 1.589, Nivel: 23
Actividad: 1%
Actividad: 1% Actividad: 1% Actividad: 1%
Gracias: 3
Agradecido 4.240 Veces en 454 Posts

Predeterminado Respuesta: Turbo [2013][HDrip][Castellano AC-3 5.1][Animación]



[IMG]http://i.*****.com/X53o0ch.png[/IMG]

Título: Turbo
Título original: Turbo
País: USA
Estreno en USA: 17/07/2013
Estreno en España: 18/10/2013
Productora: 20th Century Fox, DreamWorks Animation
Director: David Soren
Guión: Darren Lemke, Robert Siegel, David Soren
Reparto: (Voces de) Ryan Reynolds, Paul Giamatti, Michael Pena, Luis Guzmán, Bill Hader, Richard Jenkins, Ken Jeong, Michelle Rodriguez, Maya Rudolph, Ben Schwartz, Snoop Dogg, a.k.a. Snoop Lion, Samuel L. Jackson
Calificación: Apta para todos los públicos

Sinopsis:
Comedia en 3D de alta velocidad que gira en torno a un desvalido caracol cuyos sueños se ponen en superdirecta cuando –de forma milagrosa– consigue el poder de la hipervelocidad. Pero después de entablar amistad con un equipo de espabilados y acicalados caracoles, Turbo aprende que nadie alcanza el éxito con sus solas fuerzas. Así que pone todo su corazón (y su concha) en la empresa para ayudar a sus amigos a hacer realidad sus sueños, antes de meterle el turbocompresor a su propia ilusión imposible: ganar las 500 Millas de Indianápolis.

[IMG]http://i.*****.com/bGpBdWj.png[/IMG]


Calidad de Video: HDRip XviD
Calidad de Audio: Ac3 5.1 (Castellano) e Ingles 5.1
Subtitulos: Si en Español e Ingles dentro del Rar
Tamaño: 1.59 GB


[IMG]http://i.*****.com/oWENRS4.png[/IMG]


[IMG]http://i.*****.com/7MPZ0Vy.png[/IMG]

[IMG]http://i.*****.com/OqZB5tO.png[/IMG]

[IMG]http://i.*****.com/jApEOr5.png[/IMG]


[IMG]http://i.*****.com/W3FlTPB.png[/IMG]

[IMG]http://i.*****.com/JjHaK26.png[/IMG]

contains hidden content
Usted tendrá que pulsar 'gracias' para ver el contenido ocultado






vaguit0 está desconectado   Responder Citando
Los siguientes 16 foreros le dan las gracias a vaguit0 por este post:
amarosa (09/09/2014), BLADE RUNNER (22/11/2013), charli (07/10/2014), Darkseed (20/06/2014), DATA007 (08/08/2014), ELNEK (01/08/2014), gandalf-gris (19/08/2014), grande78 (05/12/2013), hysia (23/11/2013), majpiter (22/11/2013), manolobolo (02/12/2013), novatillo11 (23/11/2013), pechogato (19/06/2014), pumuki22 (26/11/2013), rosavecina (24/11/2013), vcf21 (28/11/2013)
Antiguo 22/11/2013, 14:54   #10
RIPEOS HDRIP DE CALIDAD

genio111


 
Avatar de genio111
 
Mensajes: 692
Fecha de ingreso: 21/jul/2012
Puntos: 8.733, Nivel: 64
Puntos: 8.733, Nivel: 64 Puntos: 8.733, Nivel: 64 Puntos: 8.733, Nivel: 64
Actividad: 12%
Actividad: 12% Actividad: 12% Actividad: 12%
Gracias: 2.009
Agradecido 21.031 Veces en 706 Posts

Question Turbo [HDRip][Castellano][Animación][2013]

Turbo [HDRip][Castellano][Animación][2013]




[IMG]http://img543.**********.us/img543/5450/n2xk.png[/IMG]

CAPTURAS

[IMG]http://img706.**********.us/img706/5599/94ba.png[/IMG]
[IMG]http://img856.**********.us/img856/6968/cy8g.png[/IMG]
[IMG]http://img194.**********.us/img194/7760/vtnw.png[/IMG]
[IMG]http://img59.**********.us/img59/4530/5lcg.png[/IMG]

FICHA TÉCNICA

Origen: FULL BR
Tamaño: 1.53Gb
Video:
Formato: HDRip
Códec: XviD
Resolución: 720x304
Bitrate: 1 837 Kbps
QF: 0.350
FPS: 23.976 FPS
Audio:
Códec: AC3
Canales: 6
Bitrate: 448 kbps
Frecuencia: 48,0 KHz
Idioma: Español de españa
Subtítulos: No

COMPARTICIÓN

[IMG]http://img191.**********.us/img191/1765/sc9c.jpg[/IMG][IMG]http://img849.**********.us/img849/1348/787y.jpg[/IMG]
[IMG]http://img22.**********.us/img22/4332/bdv5.png[/IMG]

Total 4 Links
3x499 MB + 1x154 MB
Unir con Winrar
1 Archivo de recuperación .rev

contains hidden content
Usted tendrá que pulsar 'gracias' para ver el contenido ocultado




__________________
Nuevo Portal QBajamos
Entra y disfruta la diferencia


To view links or images in signatures your post count must be 10 or greater. You currently have 0 posts.



To view links or images in signatures your post count must be 10 or greater. You currently have 0 posts.


Zona OnLine QueBajamos.li. Tu zona OnLine.

Última edición por vilavila1967; 26/04/2014 a las 23:42
genio111 está desconectado   Responder Citando
Los siguientes 28 foreros le dan las gracias a genio111 por este post:
akuto (22/11/2013), anacletos1 (22/11/2013), BLADE RUNNER (23/11/2013), charli (07/10/2014), charlypotter (24/11/2013), Darkseed (20/06/2014), DATA007 (08/08/2014), ELNEK (01/08/2014), gandalf-gris (19/08/2014), grande78 (05/12/2013), lorenzo1020 (22/11/2013), nenenos (26/11/2013), novatillo11 (23/11/2013), pechogato (19/06/2014), pincheta (23/11/2013), pumuki22 (25/11/2013), Putamadre (10/12/2013), Raekwon (23/11/2013), ramestev (25/11/2013), reyertinha (22/11/2013), rosavecina (24/11/2013), salfer1 (27/12/2013), tapulta (24/11/2013), Valtorre71 (22/11/2013), vcf21 (28/11/2013), vilano (26/11/2013), vilavila1967 (22/11/2013), willywy (04/12/2013)
Antiguo 24/11/2013, 11:51   #11
formatozpp


 
Mensajes: 806
Fecha de ingreso: 16/feb/2013
Puntos: 1.880, Nivel: 26
Puntos: 1.880, Nivel: 26 Puntos: 1.880, Nivel: 26 Puntos: 1.880, Nivel: 26
Actividad: 99%
Actividad: 99% Actividad: 99% Actividad: 99%
Gracias: 4
Agradecido 3.311 Veces en 675 Posts

Predeterminado Respuesta: Turbo [2013][HDrip][Castellano AC-3 5.1][Animación]







TÍTULO ORIGINAL: Turbo
AÑO: 2013
DURACIÓN: 96 min.
PAÍS: [Estados Unidos]
DIRECTOR: David Soren
REPARTO: Animación
GÉNERO: Animación. Comedia. Infantil | Coches / Automovilismo. Cine familiar



Calidad de Vídeo: Hdrip
Calidad de Audio: Castellano
Tamaño: 1,3 Gb
Unir con winrar ¡¡¡



Turbo es un caracol de jardín con un sueño imposible: convertirse en el caracol más rápido del mundo. Cuando un extraño accidente le da el poder de la súper-velocidad, Turbo intentará cumplir su sueño. Primero se hará amigo de una peculiar pandilla de caracoles callejeros tuneados y obsesionados con la velocidad, y allí Turbo aprenderá que nadie llega a tener éxito por sí solo. Así que coloca su corazón y su concha en la línea de salida dispuesto a ayudar a sus colegas a lograr sus sueños, antes de intentar alcanzar su sueño imposible: ganar las 500 millas de Indianápolis.













Bájate Todo desde Putlocker y sólo una parte de 100 Mb de Uploaded.Enlaces intercambiables tambien disponibles por Uploaded.


contains hidden content
Usted tendrá que pulsar 'gracias' para ver el contenido ocultado









formatozpp está desconectado   Responder Citando
Los siguientes 10 foreros le dan las gracias a formatozpp por este post:
amarosa (09/09/2014), charli (07/10/2014), Darkseed (20/06/2014), DATA007 (08/08/2014), ELNEK (01/08/2014), gandalf-gris (19/08/2014), rinconete (23/09/2014), rosavecina (24/11/2013), vcf21 (28/11/2013), vilano (26/11/2013)
Antiguo 27/11/2013, 18:55   #12
steven256


 
Avatar de steven256
 
Mensajes: 987
Fecha de ingreso: 27/ago/2012
Gracias: 19
Agradecido 18.626 Veces en 1.007 Posts

Predeterminado Respuesta: Turbo [2013][HDrip][Castellano AC-3 5.1][Animación]



Título: Turbo
Título original: Turbo
País: USA
Estreno en USA: 17/07/2013
Estreno en España: 18/10/2013
Productora: 20th Century Fox, DreamWorks Animation
Director: David Soren
Guión: Darren Lemke, Robert Siegel, David Soren
Reparto: (Voces de) Ryan Reynolds, Paul Giamatti, Michael Pena, Luis Guzmán, Bill Hader, Richard Jenkins, Ken Jeong, Michelle Rodriguez, Maya Rudolph, Ben Schwartz, Snoop Dogg, a.k.a. Snoop Lion, Samuel L. Jackson
Calificación: Apta para todos los públicos
Género: Animación. Comedia. Infantil | Coches / Automovilismo. 3-D. Cine familiar

Sinopsis: Comedia en 3D de alta velocidad que gira en torno a un desvalido caracol cuyos sueños se ponen en superdirecta cuando –de forma milagrosa– consigue el poder de la hipervelocidad. Pero después de entablar amistad con un equipo de espabilados y acicalados caracoles, Turbo aprende que nadie alcanza el éxito con sus solas fuerzas. Así que pone todo su corazón (y su concha) en la empresa para ayudar a sus amigos a hacer realidad sus sueños, antes de meterle el turbocompresor a su propia ilusión imposible: ganar las 500 Millas de Indianápolis.


CALIDAD DE VIDEO: HDRip XviD 720x304
CALIDAD DE AUDIO: AC3 5.1 (Castellano)
TAMAÑO: 1.33 GB

contains hidden content
Usted tendrá que pulsar 'gracias' para ver el contenido ocultado
 





steven256 está desconectado   Responder Citando
Los siguientes 7 foreros le dan las gracias a steven256 por este post:
amarosa (09/09/2014), charli (07/10/2014), Darkseed (20/06/2014), DATA007 (08/08/2014), ELNEK (01/08/2014), pechogato (19/06/2014), rinconete (23/09/2014)
Antiguo 05/12/2013, 05:01   #13
papianton


 
Avatar de papianton
 
Mensajes: 683
Fecha de ingreso: 17/jul/2012
Puntos: 4.206, Nivel: 43
Puntos: 4.206, Nivel: 43 Puntos: 4.206, Nivel: 43 Puntos: 4.206, Nivel: 43
Actividad: 15%
Actividad: 15% Actividad: 15% Actividad: 15%
Gracias: 252
Agradecido 8.065 Veces en 645 Posts

Llama Vengadora Turbo [2013][HDrip][Castellano AC-3 5.1][Animación]







Cita:
Título original
Turbo
Año
2013
Duración
96 min.
País
Estados Unidos Estados Unidos
Director
David Soren
Guión
Darren Lemke, David Soren, Robert D. Siegel
Música
Henry Jackman
Fotografía
Animation
Reparto
Animation
Productora
Dreamworks Animation
Género
Animación. Comedia. Infantil | Coches / Automovilismo. Cine familiar. 3-D
Web Oficial
http://www.turbomovie.com/
Sinopsis
Turbo es un caracol de jardín con un sueño imposible: convertirse en el caracol más rápido del mundo. Cuando un extraño accidente le da el poder de la súper-velocidad, Turbo intentará cumplir su sueño. Primero se hará amigo de una peculiar pandilla de caracoles callejeros tuneados y obsesionados con la velocidad, y allí Turbo aprenderá que nadie llega a tener éxito por sí solo. Así que coloca su corazón y su concha en la línea de salida dispuesto a ayudar a sus colegas a lograr sus sueños, antes de intentar alcanzar su sueño imposible: ganar las 500 millas de Indianápolis. (FILMAFFINITY)




General

Format : AVI
Format/Info : Audio Video Interleave
File size : 1.33 GiB
Duration : 1h 35mn
Overall bit rate : 1 987 Kbps
Movie name : Turbo [2013] Next
Director : NEXT
Writing application : VirtualDubMod 1.5.10.2 (build 2540/release)
Writing library : VirtualDubMod build 2540/release

Video
ID : 0
Format : MPEG-4 Visual
Format profile : Advanced Simple@L5
Format settings, BVOP : 2
Format settings, QPel : No
Format settings, GMC : No warppoints
Format settings, Matrix : Default (H.263)
Muxing mode : Packed bitstream
Codec ID : XVID
Codec ID/Hint : XviD
Duration : 1h 35mn
Bit rate : 1 593 Kbps
Width : 720 pixels
Height : 304 pixels
Display aspect ratio : 2.35:1
Frame rate : 23.976 fps
Color space : YUV
Chroma subsampling : 4:2:0
Bit depth : 8 bits
Scan type : Progressive
Compression mode : Lossy
Bits/(Pixel*Frame) : 0.304
Stream size : 1.06 GiB (80%)
Writing library : XviD 1.2.1 (UTC 2008-12-04)

Audio
ID : 1
Format : AC-3
Format/Info : Audio Coding 3
Mode extension : CM (complete main)
Format settings, Endianness : Big
Codec ID : 2000
Duration : 1h 35mn
Bit rate mode : Constant
Bit rate : 384 Kbps
Channel(s) : 6 channels
Channel positions : Front: L C R, Side: L R, LFE
Sampling rate : 48.0 KHz
Bit depth : 16 bits
Compression mode : Lossy
Stream size : 263 MiB (19%)
Alignment : Split accross interleaves
Interleave, duration : 42 ms (1.00 video frame)
Interleave, preload duration : 500 ms
 


*** LINKS INTERCAMBIABLES - DESCARGAS A TOPE ***




contains hidden content
Usted tendrá que pulsar 'gracias' para ver el contenido ocultado

Descomprimir con Winrar




papianton está desconectado   Responder Citando
Los siguientes 8 foreros le dan las gracias a papianton por este post:
amarosa (09/09/2014), charli (07/10/2014), Darkseed (20/06/2014), DATA007 (08/08/2014), ELNEK (01/08/2014), Piquinito (14/07/2014), rafatech (27/12/2013), rinconete (23/09/2014)
Antiguo 18/12/2013, 13:44   #14
powell74


 
Avatar de powell74
 
Mensajes: 822
Fecha de ingreso: 01/dic/2011
Puntos: 6.456, Nivel: 55
Puntos: 6.456, Nivel: 55 Puntos: 6.456, Nivel: 55 Puntos: 6.456, Nivel: 55
Actividad: 26%
Actividad: 26% Actividad: 26% Actividad: 26%
Gracias: 109
Agradecido 8.130 Veces en 812 Posts

Predeterminado Respuesta: Turbo [2013][HDrip][Castellano AC-3 5.1][Animación]








Título original Turbo
Año 2013
Duración 96 min.
País Estados Unidos
Director David Soren
Guión Darren Lemke, David Soren, Robert D. Siegel
Música Henry Jackman
Fotografía Animation
Reparto Animation
Productora Dreamworks Animation
Género Animación. Comedia. Infantil | Coches / Automovilismo. Cine familiar. 3-D

Tamaño del archivo: 1.33 GB HDrip XVID
Duración : 1h 35 min
720x304
Audio.Castellano AC3 5.1





Turbo es un caracol de jardín con un sueño imposible: convertirse en el caracol más rápido del mundo. Cuando un extraño accidente le da el poder de la súper-velocidad, Turbo intentará cumplir su sueño. Primero se hará amigo de una peculiar pandilla de caracoles callejeros tuneados y obsesionados con la velocidad, y allí Turbo aprenderá que nadie llega a tener éxito por sí solo. Así que coloca su corazón y su concha en la línea de salida dispuesto a ayudar a sus colegas a lograr sus sueños, antes de intentar alcanzar su sueño imposible: ganar las 500 millas de Indianápolis.






[img]http://s4.*********.org/t19sjjkvs/Links_Intercambiables.png[/img]

[img]http://s12.*********.org/jrin4eh2l/Uploaded.png[/img]
[img]http://s14.*********.org/4q9vm5cqp/Rapid_Gator.png[/img]
[img]http://s14.*********.org/rg90f4vy9/Bitshare.png[/img]




contains hidden content
Usted tendrá que pulsar 'gracias' para ver el contenido ocultado




UTILIZA NUESTROS ENLACES SI QUIERES COMPRAR UNA CUENTA PREMIUM O RENOVAR LA QUE YA TIENES



contains hidden content
Usted tendrá que pulsar 'gracias' para ver el contenido ocultado









powell74 está desconectado   Responder Citando
Los siguientes 6 foreros le dan las gracias a powell74 por este post:
Darkseed (20/06/2014), DATA007 (08/08/2014), ELNEK (01/08/2014), paco2996 (20/06/2014), Piquinito (14/07/2014), rinconete (23/09/2014)
Antiguo 26/02/2014, 11:44   #15
ultrakrell


 
Mensajes: 8
Fecha de ingreso: 06/ago/2012
Puntos: 1.490, Nivel: 22
Puntos: 1.490, Nivel: 22 Puntos: 1.490, Nivel: 22 Puntos: 1.490, Nivel: 22
Actividad: 2%
Actividad: 2% Actividad: 2% Actividad: 2%
Gracias: 2
Agradecido 2 Veces en 2 Posts

Predeterminado Respuesta: Turbo [2013][HDrip][Castellano AC-3 5.1][Animación]

Gracias




ultrakrell está desconectado   Responder Citando
Antiguo 19/06/2014, 22:14   #16
pechogato


 
Mensajes: 65
Fecha de ingreso: 14/jul/2012
Puntos: 1.677, Nivel: 24
Puntos: 1.677, Nivel: 24 Puntos: 1.677, Nivel: 24 Puntos: 1.677, Nivel: 24
Actividad: 1%
Actividad: 1% Actividad: 1% Actividad: 1%
Gracias: 283
Agradecido 59 Veces en 18 Posts

Predeterminado Respuesta: Turbo [2013][HDrip][Castellano AC-3 5.1][Animación]

graaaaaaaaaaaaaaacias




pechogato está desconectado   Responder Citando
Este forero ha dado las gracias a pechogato por este post:
locared (19/06/2014)
Antiguo 07/07/2014, 18:53   #17
julirri


 
Mensajes: 142
Fecha de ingreso: 08/nov/2012
Puntos: 1.628, Nivel: 24
Puntos: 1.628, Nivel: 24 Puntos: 1.628, Nivel: 24 Puntos: 1.628, Nivel: 24
Actividad: 8%
Actividad: 8% Actividad: 8% Actividad: 8%
Gracias: 252
Agradecido 66 Veces en 32 Posts

Predeterminado Respuesta: Turbo [2013][HDrip][Castellano AC-3 5.1][Animación]

graciassss




julirri está desconectado   Responder Citando
Este forero ha dado las gracias a julirri por este post:
charli (26/09/2014)
Antiguo 01/08/2014, 15:40   #18
ivnnpc


 
Avatar de ivnnpc
 
Mensajes: 108
Fecha de ingreso: 15/jul/2012
Puntos: 1.779, Nivel: 25
Puntos: 1.779, Nivel: 25 Puntos: 1.779, Nivel: 25 Puntos: 1.779, Nivel: 25
Actividad: 0%
Actividad: 0% Actividad: 0% Actividad: 0%
Gracias: 299
Agradecido 82 Veces en 43 Posts

Predeterminado Respuesta: Turbo [2013][HDrip][Castellano AC-3 5.1][Animación]

muchas gracias




ivnnpc está desconectado   Responder Citando
Este forero ha dado las gracias a ivnnpc por este post:
charli (26/09/2014)
Antiguo 02/08/2014, 09:41   #19
kanuto626


 
Mensajes: 170
Fecha de ingreso: 17/jul/2012
Puntos: 2.003, Nivel: 28
Puntos: 2.003, Nivel: 28 Puntos: 2.003, Nivel: 28 Puntos: 2.003, Nivel: 28
Actividad: 13%
Actividad: 13% Actividad: 13% Actividad: 13%
Gracias: 0
Agradecido 634 Veces en 137 Posts

Predeterminado Respuesta: Turbo [2013][HDrip][Castellano AC-3 5.1][Animación]

muchas gracias




kanuto626 está desconectado   Responder Citando
Este forero ha dado las gracias a kanuto626 por este post:
charli (23/09/2014)
Antiguo 03/08/2014, 19:49   #20
diakiles


 
Mensajes: 153
Fecha de ingreso: 23/jul/2012
Puntos: 1.953, Nivel: 27
Puntos: 1.953, Nivel: 27 Puntos: 1.953, Nivel: 27 Puntos: 1.953, Nivel: 27
Actividad: 12%
Actividad: 12% Actividad: 12% Actividad: 12%
Gracias: 1
Agradecido 127 Veces en 74 Posts

Predeterminado Respuesta: Turbo [2013][HDrip][Castellano AC-3 5.1][Animación]

muchas gracias




diakiles está desconectado   Responder Citando
Respuesta

Herramientas Buscar en Tema
Buscar en Tema:

Búsq. Avanzada
Desplegado

Permisos para publicar mensajes
No puedes crear nuevos temas
No puedes responder mensajes
No puedes subir archivos adjuntos
No puedes editar tus mensajes

Los BB code están Activado
Los Emoticones están Activado
El código [IMG] está Activado
El Código HTML está Desactivado

Ir al foro


La franja horaria es GMT +1. Ahora son las 09:41.


Powered by vBulletin™ Version 3.8.7
Copyright © 2014 vBulletin Solutions, Inc. All rights reserved.